osu file format v14

[General]
AudioFilename: Shakugan no Shana II Ending 2.mp3
AudioLeadIn: 1500
PreviewTime: 44577
Countdown: 0
SampleSet: Normal
StackLeniency: 0.7
Mode: 1
LetterboxInBreaks: 0
WidescreenStoryboard: 0

[Editor]
DistanceSpacing: 1
BeatDivisor: 4
GridSize: 4
TimelineZoom: 1

[Metadata]
Title:Sociometry
TitleUnicode:Sociometry
Artist:KOTOKO
ArtistUnicode:KOTOKO
Creator:Inyuschan
Version:Muzukashii
Source:灼眼のシャナⅡ
Tags:Shakugan no Shana II Ending ED2 Burning-Eyed TV Size Gaia CSLMVenezuela CSLM p_a_n DakeDekaane
BeatmapID:742349
BeatmapSetID:335356

[Difficulty]
HPDrainRate:5
CircleSize:4
OverallDifficulty:5
ApproachRate:7
SliderMultiplier:1.4
SliderTickRate:1

[Events]
//Background and Video events
0,0,"BG.jpg",0,0
//Break Periods
//Storyboard Layer 0 (Background)
//Storyboard Layer 1 (Fail)
//Storyboard Layer 2 (Pass)
//Storyboard Layer 3 (Foreground)
//Storyboard Sound Samples

[TimingPoints]
739,422.535211267606,4,1,0,50,1,0
14260,-100,4,1,0,60,0,0
44682,-100,4,1,0,80,0,1
75105,-100,4,1,0,70,0,0
88415,-100,4,1,0,50,0,0

[Colours]
Combo1 : 154,168,104
Combo2 : 207,88,88
Combo3 : 124,142,216
Combo4 : 216,142,75
Combo5 : 125,162,215

[HitObjects]
256,192,739,5,8,0:0:0:0:
256,192,1161,1,0,0:0:0:0:
256,192,1372,1,0,0:0:0:0:
256,192,1584,1,8,0:0:0:0:
256,192,2006,1,0,0:0:0:0:
256,192,2429,1,8,0:0:0:0:
256,192,3274,1,0,0:0:0:0:
256,192,3485,1,0,0:0:0:0:
256,192,3696,1,8,0:0:0:0:
256,192,4119,1,8,0:0:0:0:
256,192,4964,1,8,0:0:0:0:
256,192,5386,1,8,0:0:0:0:
256,192,5598,1,0,0:0:0:0:
256,192,5809,1,8,0:0:0:0:
256,192,6231,1,0,0:0:0:0:
256,192,6654,1,8,0:0:0:0:
256,192,6865,1,0,0:0:0:0:
256,192,7077,1,8,0:0:0:0:
256,192,7499,1,8,0:0:0:0:
256,192,8344,1,8,0:0:0:0:
256,192,8555,1,0,0:0:0:0:
256,192,8978,1,8,0:0:0:0:
256,192,9189,1,8,0:0:0:0:
256,192,10034,1,8,0:0:0:0:
256,192,10457,1,0,0:0:0:0:
256,192,10879,1,8,0:0:0:0:
256,192,11302,1,0,0:0:0:0:
256,192,11513,1,0,0:0:0:0:
256,192,11724,1,8,0:0:0:0:
256,192,12147,1,8,0:0:0:0:
256,192,12569,12,0,13837,0:0:0:0:
256,192,14260,5,4,0:0:0:0:
256,192,14471,1,0,0:0:0:0:
256,192,14682,1,8,0:0:0:0:
256,192,15105,1,0,0:0:0:0:
256,192,15316,1,0,0:0:0:0:
256,192,15527,1,8,0:0:0:0:
256,192,15633,1,8,0:0:0:0:
256,192,15739,1,8,0:0:0:0:
256,192,15950,1,12,0:0:0:0:
256,192,16372,1,0,0:0:0:0:
256,192,16584,1,0,0:0:0:0:
256,192,16795,1,8,0:0:0:0:
256,192,17217,1,0,0:0:0:0:
256,192,17429,1,0,0:0:0:0:
256,192,17640,1,8,0:0:0:0:
256,192,18062,1,0,0:0:0:0:
256,192,18485,1,8,0:0:0:0:
256,192,18908,1,8,0:0:0:0:
256,192,19119,1,0,0:0:0:0:
256,192,19330,1,8,0:0:0:0:
256,192,19753,1,0,0:0:0:0:
256,192,20175,1,0,0:0:0:0:
256,192,20386,1,0,0:0:0:0:
256,192,20598,1,8,0:0:0:0:
256,192,20809,1,0,0:0:0:0:
256,192,21020,1,8,0:0:0:0:
256,192,21443,1,8,0:0:0:0:
256,192,21865,1,8,0:0:0:0:
256,192,22710,1,8,0:0:0:0:
256,192,23133,1,0,0:0:0:0:
256,192,23555,1,0,0:0:0:0:
256,192,23767,1,8,0:0:0:0:
256,192,23978,1,0,0:0:0:0:
256,192,24189,1,8,0:0:0:0:
256,192,24400,1,8,0:0:0:0:
256,192,24823,1,0,0:0:0:0:
256,192,25246,1,8,0:0:0:0:
256,192,25457,1,8,0:0:0:0:
256,192,25562,1,8,0:0:0:0:
256,192,25668,1,8,0:0:0:0:
256,192,26091,1,0,0:0:0:0:
256,192,26513,1,0,0:0:0:0:
256,192,26724,1,8,0:0:0:0:
256,192,26936,1,8,0:0:0:0:
256,192,27358,1,8,0:0:0:0:
256,192,27569,1,0,0:0:0:0:
256,192,27781,1,0,0:0:0:0:
256,192,27992,1,8,0:0:0:0:
256,192,28203,1,8,0:0:0:0:
256,192,28626,1,8,0:0:0:0:
256,192,28837,1,8,0:0:0:0:
256,192,29048,1,0,0:0:0:0:
256,192,29154,1,0,0:0:0:0:
256,192,29260,1,0,0:0:0:0:
256,192,29471,1,12,0:0:0:0:
256,192,29788,1,8,0:0:0:0:
256,192,30105,1,0,0:0:0:0:
256,192,30316,1,0,0:0:0:0:
256,192,30739,1,8,0:0:0:0:
256,192,31162,1,0,0:0:0:0:
256,192,31478,1,8,0:0:0:0:
256,192,31795,1,0,0:0:0:0:
256,192,32006,1,0,0:0:0:0:
256,192,32429,1,8,0:0:0:0:
256,192,32851,1,0,0:0:0:0:
256,192,33168,1,8,0:0:0:0:
256,192,33485,1,8,0:0:0:0:
256,192,33696,1,0,0:0:0:0:
256,192,34013,1,0,0:0:0:0:
256,192,34330,1,8,0:0:0:0:
256,192,34541,1,8,0:0:0:0:
256,192,34858,1,0,0:0:0:0:
256,192,35175,1,8,0:0:0:0:
256,192,35386,1,0,0:0:0:0:
256,192,36231,1,12,0:0:0:0:
256,192,36548,1,8,0:0:0:0:
256,192,36865,1,0,0:0:0:0:
256,192,37077,1,0,0:0:0:0:
256,192,37499,1,8,0:0:0:0:
256,192,37710,1,0,0:0:0:0:
256,192,37922,1,8,0:0:0:0:
256,192,38239,1,8,0:0:0:0:
256,192,38555,1,0,0:0:0:0:
256,192,38767,1,8,0:0:0:0:
256,192,39189,1,8,0:0:0:0:
256,192,39400,1,0,0:0:0:0:
256,192,39612,1,8,0:0:0:0:
256,192,39929,1,0,0:0:0:0:
256,192,40246,1,8,0:0:0:0:
256,192,40457,1,8,0:0:0:0:
256,192,40774,1,8,0:0:0:0:
256,192,41091,1,8,0:0:0:0:
256,192,41302,5,0,0:0:0:0:
256,192,41619,1,8,0:0:0:0:
256,192,41936,1,0,0:0:0:0:
256,308,42147,6,0,L|256:20,1,280,,,0:0:0:0:
256,192,44682,1,4,0:0:0:0:
256,192,44893,1,0,0:0:0:0:
256,192,45105,1,8,0:0:0:0:
256,192,45316,1,0,0:0:0:0:
256,192,45527,1,8,0:0:0:0:
256,192,45950,1,0,0:0:0:0:
256,192,46161,1,0,0:0:0:0:
256,192,46372,1,8,0:0:0:0:
256,192,46689,1,0,0:0:0:0:
256,192,47006,1,8,0:0:0:0:
256,192,47217,1,8,0:0:0:0:
256,192,48062,1,8,0:0:0:0:
256,192,48485,1,8,0:0:0:0:
256,192,48696,1,0,0:0:0:0:
256,192,48908,1,8,0:0:0:0:
256,192,49330,1,0,0:0:0:0:
256,192,49541,1,0,0:0:0:0:
256,192,49753,1,8,0:0:0:0:
256,192,50069,1,0,0:0:0:0:
256,192,50386,1,8,0:0:0:0:
256,192,50598,1,0,0:0:0:0:
256,192,50809,1,8,0:0:0:0:
256,192,50915,1,8,0:0:0:0:
256,192,51020,1,8,0:0:0:0:
256,192,51443,1,0,0:0:0:0:
256,192,51865,1,8,0:0:0:0:
256,192,52288,1,0,0:0:0:0:
256,192,52499,1,0,0:0:0:0:
256,192,52710,1,8,0:0:0:0:
256,192,52922,1,0,0:0:0:0:
256,192,53133,1,8,0:0:0:0:
256,192,53450,1,0,0:0:0:0:
256,192,53767,1,8,0:0:0:0:
256,192,53978,1,8,0:0:0:0:
256,192,54400,1,8,0:0:0:0:
256,192,54612,1,0,0:0:0:0:
256,192,54823,1,8,0:0:0:0:
256,192,55246,1,0,0:0:0:0:
256,192,55457,1,8,0:0:0:0:
256,192,55879,1,0,0:0:0:0:
256,192,56091,1,8,0:0:0:0:
256,192,56196,1,8,0:0:0:0:
256,192,56302,1,8,0:0:0:0:
256,192,56513,1,0,0:0:0:0:
256,192,56936,1,8,0:0:0:0:
256,192,57147,1,0,0:0:0:0:
256,192,57253,1,0,0:0:0:0:
256,192,57358,1,0,0:0:0:0:
256,192,57569,1,0,0:0:0:0:
256,192,57781,1,8,0:0:0:0:
256,192,58203,1,12,0:0:0:0:
256,192,58415,1,8,0:0:0:0:
256,192,58626,1,0,0:0:0:0:
256,192,58837,1,0,0:0:0:0:
256,192,59048,1,8,0:0:0:0:
256,192,59471,1,0,0:0:0:0:
256,192,59682,1,0,0:0:0:0:
256,192,59893,1,8,0:0:0:0:
256,192,60210,1,0,0:0:0:0:
256,192,60527,1,8,0:0:0:0:
256,192,60739,1,8,0:0:0:0:
256,192,61584,1,8,0:0:0:0:
256,192,61795,1,0,0:0:0:0:
256,192,62006,1,0,0:0:0:0:
256,192,62217,1,8,0:0:0:0:
256,192,62429,1,8,0:0:0:0:
256,192,62851,1,0,0:0:0:0:
256,192,63062,1,0,0:0:0:0:
256,192,63274,1,8,0:0:0:0:
256,192,63591,1,8,0:0:0:0:
256,192,63908,1,0,0:0:0:0:
256,192,64119,1,8,0:0:0:0:
256,192,64330,1,0,0:0:0:0:
256,192,64541,1,8,0:0:0:0:
256,192,64964,1,8,0:0:0:0:
256,192,65386,1,0,0:0:0:0:
256,192,65809,1,8,0:0:0:0:
256,192,66020,1,0,0:0:0:0:
256,192,66231,1,8,0:0:0:0:
256,192,66654,1,8,0:0:0:0:
256,192,66971,1,0,0:0:0:0:
256,192,67288,1,8,0:0:0:0:
256,192,67499,1,8,0:0:0:0:
256,192,67710,1,0,0:0:0:0:
256,192,67922,1,8,0:0:0:0:
256,192,68344,1,8,0:0:0:0:
256,192,68555,1,0,0:0:0:0:
256,192,68767,1,0,0:0:0:0:
256,192,68978,1,8,0:0:0:0:
256,192,69400,1,8,0:0:0:0:
256,192,69612,1,0,0:0:0:0:
256,192,69823,1,8,0:0:0:0:
256,192,70034,12,0,71302,0:0:0:0:
256,192,71724,5,0,0:0:0:0:
256,192,72147,5,8,0:0:0:0:
256,192,72569,1,0,0:0:0:0:
256,192,72992,1,8,0:0:0:0:
256,192,73203,1,8,0:0:0:0:
256,192,73415,1,0,0:0:0:0:
256,192,73626,1,8,0:0:0:0:
256,192,73837,1,8,0:0:0:0:
256,192,74260,1,0,0:0:0:0:
256,192,74365,1,0,0:0:0:0:
256,192,74471,1,0,0:0:0:0:
256,192,74682,1,8,0:0:0:0:
256,192,74893,1,0,0:0:0:0:
256,192,75105,1,12,0:0:0:0:
256,192,75950,1,0,0:0:0:0:
256,192,76161,1,0,0:0:0:0:
256,192,76372,1,8,0:0:0:0:
256,192,76584,1,8,0:0:0:0:
256,192,76795,1,0,0:0:0:0:
256,192,76900,1,0,0:0:0:0:
256,192,77006,1,0,0:0:0:0:
256,192,77217,1,8,0:0:0:0:
256,192,77640,1,0,0:0:0:0:
256,192,77746,1,0,0:0:0:0:
256,192,77851,1,0,0:0:0:0:
256,192,78062,1,8,0:0:0:0:
256,192,78485,1,8,0:0:0:0:
256,192,78696,1,0,0:0:0:0:
256,192,78908,1,8,0:0:0:0:
256,192,79330,1,0,0:0:0:0:
256,192,79753,1,8,0:0:0:0:
256,192,79964,1,8,0:0:0:0:
256,192,80175,1,0,0:0:0:0:
256,192,80281,1,0,0:0:0:0:
256,192,80386,1,0,0:0:0:0:
256,192,80598,1,8,0:0:0:0:
256,192,81020,1,0,0:0:0:0:
256,192,81126,1,0,0:0:0:0:
256,192,81231,1,0,0:0:0:0:
256,192,81443,1,8,0:0:0:0:
256,192,81865,1,0,0:0:0:0:
256,192,82077,1,0,0:0:0:0:
256,192,82288,1,8,0:0:0:0:
256,192,82710,1,0,0:0:0:0:
256,192,82922,1,8,0:0:0:0:
256,192,83133,1,0,0:0:0:0:
256,192,83239,1,0,0:0:0:0:
256,192,83344,1,0,0:0:0:0:
256,192,83555,1,8,0:0:0:0:
256,192,83767,1,0,0:0:0:0:
256,192,83978,1,8,0:0:0:0:
256,192,84400,1,8,0:0:0:0:
256,192,84612,1,0,0:0:0:0:
256,192,84717,1,0,0:0:0:0:
256,192,84823,1,0,0:0:0:0:
256,192,85034,1,0,0:0:0:0:
256,192,85246,1,8,0:0:0:0:
256,192,85457,1,0,0:0:0:0:
256,192,85668,1,8,0:0:0:0:
256,192,86091,1,8,0:0:0:0:
256,192,86302,1,0,0:0:0:0:
256,192,86513,1,8,0:0:0:0:
256,192,86936,1,8,0:0:0:0:
256,192,87147,1,0,0:0:0:0:
256,192,87253,1,0,0:0:0:0:
256,192,87358,1,0,0:0:0:0:
256,192,87781,1,8,0:0:0:0:
256,192,87886,1,8,0:0:0:0:
256,192,87992,1,8,0:0:0:0:
256,192,88203,1,0,0:0:0:0:
256,192,88415,1,8,0:0:0:0:
